Wrestling Forum banner
1 - 1 of 1 Posts

·
Premium Member
Joined
·
2,523 Posts
Discussion Starter · #1 ·
UFC.128.Shogun.vs.Jones.PPV.720p.HDTV.x264-XS



General Information
Format : Matroska
File size : 5.20 GiB
Duration : 2h 56mn
Overall bit rate : 4 206 Kbps
Writing application : Lavf51.12.1
Writing library : Lavf51.12.1
Video
ID : 1
Format : AVC
Format/Info : Advanced Video Codec
Format profile : [email protected]
Format settings, CABAC : No
Format settings, ReFrames : 1 frame
Muxing mode : Container [email protected]
Codec ID : V_MPEG4/ISO/AVC
Duration : 2h 56mn
Bit rate : 3 930 Kbps
Width : 1 280 pixels
Height : 720 pixels
Display aspect ratio : 16:9
Frame rate : 29.970 fps
Color space : YUV
Chroma subsampling : 4:2:0
Bit depth : 8 bits
Scan type : Progressive
Bits/(Pixel*Frame) : 0.142
Stream size : 4.86 GiB (93%)
Language : English
Audio
ID : 2
Format : AC-3
Format/Info : Audio Coding 3
Mode extension : CM (complete main)
Codec ID : A_AC3
Duration : 2h 56mn
Bit rate mode : Constant
Bit rate : 192 Kbps
Channel(s) : 2 channels
Channel positions : Front: L R
Sampling rate : 48.0 KHz
Bit depth : 16 bits
Stream size : 243 MiB (5%)
Language : English


Fight Card
Heavyweight bout: Brendan Schaub vs. Mirko Cro Cop
Middleweight bout: Nate Marquardt vs. Dan Miller
Lightweight bout: Jim Miller vs. Kamal Shalorus
Bantamweight bout: Urijah Faber vs. Eddie Wineland
Light Heavyweight Championship bout: MaurÃ.cio "Shogun" Rua vs. Jon Jones
Featherweight bout: Raphael Assunção vs. Erik Koch
FILESERVE
Code:
http://www.fileserve.com/file/tpRtWfx/UFC.128.Shogun.vs.Jones.PPV.720p.HDTV.x264-XS.part1.rar
http://www.fileserve.com/file/ts4nEmX/UFC.128.Shogun.vs.Jones.PPV.720p.HDTV.x264-XS.part2.rar
http://www.fileserve.com/file/hS3Skcx/UFC.128.Shogun.vs.Jones.PPV.720p.HDTV.x264-XS.part3.rar
http://www.fileserve.com/file/SYhdMrb/UFC.128.Shogun.vs.Jones.PPV.720p.HDTV.x264-XS.part4.rar
http://www.fileserve.com/file/3BgUWmT/UFC.128.Shogun.vs.Jones.PPV.720p.HDTV.x264-XS.part5.rar
http://www.fileserve.com/file/vzJhK6A/UFC.128.Shogun.vs.Jones.PPV.720p.HDTV.x264-XS.part6.rar
http://www.fileserve.com/file/KXxtngk/UFC.128.Shogun.vs.Jones.PPV.720p.HDTV.x264-XS.part7.rar
http://www.fileserve.com/file/jRyr2s5/UFC.128.Shogun.vs.Jones.PPV.720p.HDTV.x264-XS.part8.rar
USERSHARE
Code:
http://www.usershare.net/6se1ok7rflba/UFC.128.Shogun.vs.Jones.PPV.720p.HDTV.x264-XS.part1.rar
http://www.usershare.net/xxkg1lvvbzhk/UFC.128.Shogun.vs.Jones.PPV.720p.HDTV.x264-XS.part2.rar
http://www.usershare.net/y3uslt9b5zgf/UFC.128.Shogun.vs.Jones.PPV.720p.HDTV.x264-XS.part3.rar
http://www.usershare.net/tqr44q4bvtjr/UFC.128.Shogun.vs.Jones.PPV.720p.HDTV.x264-XS.part4.rar
http://www.usershare.net/fcgi71nqpxc2/UFC.128.Shogun.vs.Jones.PPV.720p.HDTV.x264-XS.part5.rar
http://www.usershare.net/bz1m2m0e9ehj/UFC.128.Shogun.vs.Jones.PPV.720p.HDTV.x264-XS.part6.rar
http://www.usershare.net/vzs14fbq3rcf/UFC.128.Shogun.vs.Jones.PPV.720p.HDTV.x264-XS.part7.rar
http://www.usershare.net/pha0q8qyie4b/UFC.128.Shogun.vs.Jones.PPV.720p.HDTV.x264-XS.part8.rar
 
1 - 1 of 1 Posts
Top