Wrestling Forum banner

1 - 1 of 1 Posts

·
Premium Member
Joined
·
2,279 Posts
Discussion Starter · #1 ·
UFC 123 Pre Fight Press Conference



Code:
General
Complete name                    : UFC 123 Pre Fight Press Conference (600k).wmv
Format                           : Windows Media
File size                        : 200 MiB
Duration                         : 41mn 54s
Overall bit rate mode            : Constant
Overall bit rate                 : 668 Kbps
Maximum Overall bit rate         : 674 Kbps
Performer                        : UFC.com
Encoded date                     : UTC 2010-11-17 17:25:20.991
Copyright                        : 2009
Frame Size                       : 16x9

Video
ID                               : 2
Format                           : VC-1
Format profile                   : [email protected]
Codec ID                         : WMV3
Codec ID/Info                    : Windows Media Video 9
Codec ID/Hint                    : WMV3
Description of the codec         : Windows Media Video 9
Duration                         : 41mn 54s
Bit rate mode                    : Constant
Bit rate                         : 600 Kbps
Width                            : 640 pixels
Height                           : 360 pixels
Display aspect ratio             : 16:9
Frame rate                       : 29.970 fps
Bit depth                        : 8 bits
Scan type                        : Progressive
Bits/(Pixel*Frame)               : 0.087
Stream size                      : 180 MiB (90%)
Language                         : English (US)

Audio
ID                               : 1
Format                           : WMA
Format version                   : Version 2
Codec ID                         : 161
Codec ID/Info                    : Windows Media Audio
Description of the codec         : Windows Media Audio 9.2 -  64 kbps, 44 kHz, stereo (A/V) 1-pass CBR
Duration                         : 41mn 54s
Bit rate mode                    : Constant
Bit rate                         : 64.0 Kbps
Channel(s)                       : 2 channels
Sampling rate                    : 44.1 KHz
Bit depth                        : 16 bits
Stream size                      : 19.2 MiB (10%)
Language                         : English (US)
HOTFILE
Code:
http://hotfile.com/dl/83290902/5f918ff/UFC_123_Pre_Fight_Press_Conference_(600k).wmv.html
 
1 - 1 of 1 Posts
Top