Wrestling Forum banner

1 - 1 of 1 Posts

·
Premium Member
Joined
·
2,122 Posts
Discussion Starter #1
Pacquiao.vs.Bradley.2012.480p.HDTV.x264.AC3-ADTRG



Pacquiao.vs.Bradley.2012.480p.HDTV.x264.AC3-ADTRG

Boxing

Complete name : Pacquiao.vs.Bradley.2012.480p.HDTV.x264.AC3-ADTRG.mkv
Format : Matroska
Format version : Version 2
File size : 716 MiB
Duration : 59mn 31s
Overall bit rate : 1 683 Kbps
Movie name : Pacquiao.vs.Bradley.2012.480p.HDTV.x264.AC3-ADTRG
Encoded date : UTC 2012-06-10 07:14:42
Writing application : mkvmerge v5.4.0 ('Piper') built on Mar 10 2012 13:34:39
Writing library : libebml v1.2.3 + libmatroska v1.3.0

Video
ID : 1
Format : AVC
Format/Info : Advanced Video Codec
Format profile : [email protected]
Bit rate : 1 500 Kbps
Width : 852 pixels
Height : 478 pixels
Display aspect ratio : 16:9
Frame rate : 25.000 fps
Stream size : 620 MiB (87%)

Audio
ID : 2
Format : AC-3
Bit rate : 192 Kbps
Channel(s) : 2 channels
Channel positions : Front: L R
Sampling rate : 48.0 KHz
Stream size : 81.7 MiB (11%)
Language : English
Code:
RS PREMIUM
http://adf.ly/9YDeG

FILEFACTORY
http://www.filefactory.com/file/2lkxsa9t3hil/n/Pacquiao_vs_Bradley_2012_480p_HDTV_x264_AC3-ADTRG_mkv

UPLOADED>TO
http://ul.to/belv68f9/Pacquiao.vs.Bradley.2012.480p.HDTV.x264.AC3-ADTRG.mkv

NETLOAD
http://netload.in/datei6bDyxE176t/Pacquiao.vs.Bradley.2012.480p.HDTV.x264.AC3-ADTRG.mkv.htm

TURBO
http://turbobit.net/y16zwehrcq6y/Pacquiao.vs.Bradley.2012.480p.HDTV.x264.AC3-ADTRG.mkv.html

RAPIDGATOR
http://rapidgator.net/file/17255875/Pacquiao.vs.Bradley.2012.480p.HDTV.x264.AC3-ADTRG.mkv.html

IFIFLE
http://adf.ly/9YDft
 
1 - 1 of 1 Posts
Top