Wrestling Forum banner

1 - 1 of 1 Posts

·
My Name Is DM Punk
Joined
·
147 Posts
Discussion Starter #1 (Edited)
Here is the Mitchell and Webb film- Magicians

Code:
http://www.imdb.com/title/tt0841027/
Format : AVI
Format/Info : Audio Video Interleave
File size : 700 MiB
Duration : 1h 26mn
Overall bit rate : 1 128 Kbps
Writing application : VirtualDubMod 1.5.4.1 (build 2178/release)
Writing library : VirtualDubMod build 2178/release

Video
ID : 0
Format : MPEG-4 Visual
Format profile : Advanced [email protected]
Format settings, BVOP : Yes
Format settings, QPel : No
Format settings, GMC : No warppoints
Format settings, Matrix : Default (H.263)
Muxing mode : Packed bitstream
Codec ID : XVID
Codec ID/Hint : XviD
Duration : 1h 26mn
Bit rate : 1 003 Kbps
Width : 720 pixels
Height : 304 pixels
Display aspect ratio : 2.35:1
Frame rate : 25.000 fps
Resolution : 8 bits
Colorimetry : 4:2:0
Scan type : Progressive
Bits/(Pixel*Frame) : 0.183
Stream size : 623 MiB (89%)
Writing library : XviD 1.2.1 (UTC 2008-12-04)

Audio
ID : 1
Format : MPEG Audio
Format version : Version 1
Format profile : Layer 3
Mode : Joint stereo
Codec ID : 55
Codec ID/Hint : MP3
Duration : 1h 26mn
Bit rate mode : Variable
Bit rate : 112 Kbps
Nominal bit rate : 128 Kbps
Channel(s) : 2 channels
Sampling rate : 48.0 KHz
Stream size : 69.4 MiB (10%)
Alignment : Aligned on interleaves
Interleave, duration : 24 ms (0.60 video frame)
Interleave, preload duration : 683 ms
Writing library : LAME3.98r
Encoding settings : -m j -V 4 -q 2 -lowpass 17 --abr 128

Original Source- Magicians 2007 Retail DVD-

1 Click Downloads

Megaupload
Code:
http://www.megaupload.com/?d=KUJ3OG02
Depositfiles
Code:
http://depositfiles.com/en/files/qy43inb6r
Multi-Parts (Links Are Interchangable)

Part 1

Code:
http://rapidshare.com/files/417679146/I_Love_Beheadment.part1.rar
Code:
http://hotfile.com/dl/67727580/060760a/I_Love_Beheadment.part1.rar.html
Code:
http://www.zshare.net/download/8016493769973c66/
Code:
http://uploading.com/files/8911md12/I%2BLove%2BBeheadment.part1.rar/
Code:
http://www.megaupload.com/?d=VURRCR5H

Part 2

Code:
http://rapidshare.com/files/417679093/I_Love_Beheadment.part2.rar
Code:
http://www.megaupload.com/?d=069AF88Z
Code:
http://depositfiles.com/en/files/r4brlh298
Code:
http://hotfile.com/dl/67727633/60bb087/I_Love_Beheadment.part2.rar.html
Code:
http://uploading.com/files/4b3eb715/I%2BLove%2BBeheadment.part2.rar/
Code:
http://www.zshare.net/download/1653931754333a/

Part 3

Code:
http://rapidshare.com/files/417679294/I_Love_Beheadment.part3.rar
Code:
http://www.megaupload.com/?d=612WP7SN
Code:
http://hotfile.com/dl/67726980/872a8b0/I_Love_Beheadment.part3.rar.html
Code:
http://www.zshare.net/download/80165011bdd9caec/
Code:
http://uploading.com/files/95c32196/I%2BLove%2BBeheadment.part3.rar/
Part 4

Code:
http://rapidshare.com/files/417678798/I_Love_Beheadment.part4.rar
Code:
http://www.megaupload.com/?d=5KRW28XD
Code:
http://depositfiles.com/files/jb2gnkd5g
Code:
http://hotfile.com/dl/67727341/ea50f52/I_Love_Beheadment.part4.rar.html
Code:
http://www.zshare.net/download/8016498499e302ed/
Code:
http://uploading.com/files/d625emf9/I%2BLove%2BBeheadment.part4.rar/
 
1 - 1 of 1 Posts
Top