Wrestling Forum banner

1 - 1 of 1 Posts

·
Premium Member
Joined
·
2,125 Posts
Discussion Starter #1
Legend.FC.9.Prelims



General:

Complete name : Legend FC 9
Format : MPEG-4
Format profile : Sony PSP
Codec ID : MSNV
File size : 590 MiB
Duration : 1h 52mn
Overall bit rate : 732 Kbps
Track name/Position : 0
Track name/Total : 0
Encoded date : UTC 2012-06-17 23:13:26
Tagged date : UTC 2012-06-17 23:13:26


Video:

ID : 1
Format : AVC
Format/Info : Advanced Video Codec
Format profile : [email protected]
Format settings, CABAC : No
Format settings, ReFrames : 2 frames
Format settings, GOP : M=1, N=29
Codec ID : avc1
Codec ID/Info : Advanced Video Coding
Duration : 1h 52mn
Bit rate mode : Variable
Bit rate : 601 Kbps
Width : 480 pixels
Height : 360 pixels
Display aspect ratio : 16:9
Frame rate mode : Constant
Frame rate : 25.000 fps
Color space : YUV
Chroma subsampling : 4:2:0
Bit depth : 8 bits
Scan type : Progressive
Bits/(Pixel*Frame) : 0.139
Stream size : 485 MiB (82%)
Language : English
Encoded date : UTC 2012-06-17 23:13:26
Tagged date : UTC 2012-06-17 23:13:26

Audio:

ID : 2
Format : AAC
Format/Info : Advanced Audio Codec
Format profile : LC
Codec ID : 40
Duration : 1h 52mn
Source duration : 1h 52mn
Bit rate mode : Constant
Bit rate : 128 Kbps
Channel(s) : 2 channels
Channel positions : Front: L R
Sampling rate : 44.1 KHz
Compression mode : Lossy
Stream size : 103 MiB (17%)
Source stream size : 103 MiB (17%)
Language : English
Encoded date : UTC 2012-06-17 23:13:26
Tagged date : UTC 2012-06-17 23:13:26
mdhd_Duration : 6767370
I will add the main card when I get that

Code:
RS PREMIUM
http://adf.ly/9qrtJ

FILEFACTORY
http://www.filefactory.com/file/7kypmc7nq90l/n/Legend_FC_9_mp4

UPLOADED>TO
http://ul.to/2b5smkr4/Legend.FC.9.mp4

NETLOAD
http://netload.in/dateiaf26CAXXSk/Legend.FC.9.1.rar.htm

TURBO
http://turbobit.net/iqew0107pv88/Legend.FC.9.mp4.html

RAPIDGATOR
http://rapidgator.net/file/18912207/Legend.FC.9.mp4.html
 
1 - 1 of 1 Posts
Top