Wrestling Forum banner
1 - 2 of 2 Posts

·
Registered
Joined
·
1,155 Posts
Discussion Starter · #1 ·
KC Guest Booker Yesterday & Today by 220


Format : AVI
Format/Info : Audio Video Interleave
Format profile : OpenDML
File size : 1.01 GiB
Duration : 1h 59mn
Overall bit rate : 1 212 Kbps
Writing application : Lavf52.39.1

Video
ID : 0
Format : xvid
Codec ID : xvid
Duration : 1h 59mn
Bit rate : 1 131 Kbps
Width : 640 pixels
Height : 480 pixels
Display aspect ratio : 4:3
Frame rate : 23.000 fps
Bits/(Pixel*Frame) : 0.160
Stream size : 966 MiB (93%)

Audio
ID : 1
Format : MPEG Audio
Format version : Version 1
Format profile : Layer 3
Mode : Joint stereo
Mode extension : MS Stereo
Codec ID : 55
Codec ID/Hint : MP3
Duration : 1h 59mn
Bit rate mode : Constant
Bit rate : 64.0 Kbps
Channel(s) : 2 channels
Sampling rate : 44.1 KHz
Compression mode : Lossy
Stream size : 54.7 MiB (5%
Sinlge LiNK DownLOAD

Code:
http://filemates.com/dmf6tlq2grwy/KCGBSULLIVANGABE.avi
Code:
http://turbobit.net/bulynodea4tj/KCGBSULLIVANGABE.avi.html
Code:
http://ul.to/ja4bzsy6/KCGBSULLIVANGABE.avi
 
1 - 2 of 2 Posts
Top