Wrestling Forum banner

1 - 1 of 1 Posts

·
Premium Member
Joined
·
2,269 Posts
Discussion Starter · #1 ·
K-1.Dynamite.2010.XviD-Rocky



Code:
Complete name                    :HDNETFights-Dynamite-XviD-2010 Dec31-Rocky
Format                           : AVI
Format/Info                      : Audio Video Interleave
Format profile                   : OpenDML
File size                        : 4.36 GiB
Duration                         : 4h 38mn
Overall bit rate                 : 2 242 Kbps
Writing application              : AVI-Mux GUI 1.17.8.3, Feb 16 201019:42:50

Video
ID                               : 0
Format                           : MPEG-4 Visual
Format profile                   : Advanced [email protected]
Format settings, BVOP            : Yes
Format settings, QPel            : No
Format settings, GMC             : No warppoints
Format settings, Matrix          : Default (H.263)
Muxing mode                      : Packed bitstream
Codec ID                         : XVID
Codec ID/Hint                    : XviD
Duration                         : 4h 38mn
Bit rate                         : 2 127 Kbps
Width                            : 352 pixels
Height                           : 192 pixels
Display aspect ratio             : 16:9
Frame rate                       : 29.970 fps
Color space                      : YUV
Chroma subsampling               : 4:2:0
Bit depth                        : 8 bits
Scan type                        : Progressive
Compression mode                 : Lossy
Bits/(Pixel*Frame)               : 1.050
Stream size                      : 4.14 GiB (95%)
Writing library                  : XviD 1.2.1 (UTC 2008-12-04)

Audio
ID                               : 1
Format                           : MPEG Audio
Format version                   : Version 1
Format profile                   : Layer 3
Mode                             : Joint stereo
Codec ID                         : 55
Codec ID/Hint                    : MP3
Duration                         : 4h 38mn
Bit rate mode                    : Variable
Bit rate                         : 106 Kbps
Nominal bit rate                 : 128 Kbps
Channel(s)                       : 2 channels
Sampling rate                    : 48.0 KHz
Compression mode                 : Lossy
Stream size                      : 211 MiB (5%)
Alignment                        : Aligned on interleaves
Interleave, duration             : 24 ms (0.72 video frame)
Interleave, preload duration     : 235 ms
Title                            : VTS_01_1 T80 2_0ch 256Kbps DELAY 0ms
Writing library                  : LAME3.98r
Encoding settings                : -m j -V 4 -q 2 -lowpass 17 --abr 128



INTERCHANGEABLE LINKS

HOTFILE
Code:
http://hotfile.com/dl/93571706/5e3f7fc/K-1.Dynamite.2010.XviD-Rocky.part1.rar.html
http://hotfile.com/dl/93571466/131d84d/K-1.Dynamite.2010.XviD-Rocky.part2.rar.html
http://hotfile.com/dl/93570458/5ef9cf7/K-1.Dynamite.2010.XviD-Rocky.part3.rar.html
http://hotfile.com/dl/93570389/370ea3c/K-1.Dynamite.2010.XviD-Rocky.part4.rar.html
http://hotfile.com/dl/93570263/b3f7b64/K-1.Dynamite.2010.XviD-Rocky.part5.rar.html
FILESERVE
Code:
http://www.fileserve.com/file/HJv3Ker/K-1.Dynamite.2010.XviD-Rocky.part1.rar
http://www.fileserve.com/file/dQrnssV/K-1.Dynamite.2010.XviD-Rocky.part2.rar
http://www.fileserve.com/file/st2jvSM/K-1.Dynamite.2010.XviD-Rocky.part3.rar
http://www.fileserve.com/file/zmhy5ND/K-1.Dynamite.2010.XviD-Rocky.part4.rar
http://www.fileserve.com/file/u3QsUmh/K-1.Dynamite.2010.XviD-Rocky.part5.rar
TURBO
Code:
http://turbobit.net/51w61jpwavt1.html
http://turbobit.net/bebp54l3czi3.html
http://turbobit.net/oq8cg2bj9esv.html
http://turbobit.net/p41p3sq0u8wu.html
http://turbobit.net/myidomzcl6j7.html
 
1 - 1 of 1 Posts
Top